Pinkpop Festival 2016 – Highlights (2016) HDTV 1080i H.264 DD 5.1

Artist: Lionel Richie, Rammstein, Paul McCartney, Red Hot Chili Peppers, The Common Linnets, Gary Clark Jr., Lianne La Havas, Imelda May, Vintage Trouble, Skunk Anansie and more
Genre: Rock, Industrial, Blues, Synthpop, Indie pop, Electronica
Duration: 01: 33: 27 + 04: 08: 14
Year: 2016
Quality: HDTV 1080i
Container: TS
Video: MPEG4 Video (H264) 1920×1080 25fps 12.1 Mbps
1 Audio: MPEG Audio 48000Hz stereo 256kbps
2 Audio: Dolby AC3 48000Hz 6ch 448kbps

Setlist:
Part 1
01. The Common Linnets – Hearts On Fire
02. The Common Linnets – Calm After The Storm
03. Years & Years – King
04. Gary Clark Jr. – Cold Blooded
05. Lianne La Havas – Forget
06. De Staat – Witch Doctor
07. Red Hot Chili Peppers – Californication
08. Red Hot Chili Peppers – Right On Time
09. Lukas Graham – 7 Years
10. Bastille – Pompeii
11. Halestorm – Love Bites
12. James Morrison – Broken Strings
13. Imelda May – It’s Good To Be Alive
14. Major Lazer – Lean On
15. Doe Maar – Belle Helene
16. Doe Maar – Smoorverliefd
Part 2
01. James Morisson – Slave To The Music
02. Red Hot Chili Peppers – Dani California
03. Lucas Hamming – Never Let You Down
04. Lucas Hamming – Wood For Trees
05. Doe Maar – 1 Nacht Alleen
06. Vintage Trouble – Run Like The River
07. All Time Low – Time Bomb
08. Douwe Bob – Slow Down
09. Douwe Bob – How Lucky We Are
10. Rammstein – Ramm 4
11. Matt Simons – Catch & Release
12. Major Lazer – Powerfull
13. John Newman – Blame
14. The Common Linnets – In Your Eyes
15. The Common Linnets – Days Of Endless Time
16. Skunk Anansie – My Ugly Boy
17. Skunk Anansie – Weak As I Am
18. Jungle By Night – Cruise Control
19. Tom Odell – Can’t Ptrtend
20. Tom Odell – Concrete
21. Pucifer – The Remedy
22. Walk Off The Earth – Somebody That i Used To Know (Gotye cover)
23. Harts – Lovers In Bloom
24. Lianne La Havas – Green & Cold
25. Skillet – Monster
26. Vintage Trouble – Not Alright By Me
27. Doe Maar – Alles Gaat Voorbij
28. Doe Maar – Is Dit Alles
29. Paul McCartney – Hard Days Night
30. Paul McCartney – Can’t Buy Me Love
31. De Staat – Make The Call
32. James Bay – Hold Back The River
33. Lionel Richie – Brick House / Fire
34. Lionel Richie – Hello
35. Lionel Richie – All Night Long
36. Rammstein – Du Riechst So Gut
37. Rammstein – Du Hast
38. Paul McCartney – Hard Days Night
39. Paul McCartney – Can’t Buy Me Love
40. Red Hot Chili Peppers – Dark Necessities
41. Red Hot Chili Peppers – By The Way

picpicpicpicpicpic

General
ID                             : 1 (0x1)
Complete name                  : D:\Various Artists - Pinkpop Highlights 2016 (Part 1).ts
Format                         : MPEG-TS
File size                      : 8.96 GiB
Duration                       : 1h 33mn
Overall bit rate mode          : Variable
Overall bit rate               : 13.7 Mbps

Video
ID                             : 256 (0x100)
Menu ID                        : 1 (0x1)
Format                         : AVC
Format/Info                    : Advanced Video Codec
Format profile                 : [email protected]
Format settings, CABAC         : Yes
Format settings, ReFrames      : 4 frames
Codec ID                       : 27
Duration                       : 1h 33mn
Bit rate                       : 12.1 Mbps
Width                          : 1 920 pixels
Height                         : 1 080 pixels
Display aspect ratio           : 16:9
Frame rate                     : 25.000 fps
Color space                    : YUV
Chroma subsampling             : 4:2:0
Bit depth                      : 8 bits
Scan type                      : Interlaced
Scan order                     : Top Field First
Bits/(Pixel*Frame)             : 0.233
Stream size                    : 7.88 GiB (88%)
Color range                    : Limited
Color primaries                : BT.709
Transfer characteristics       : BT.709
Matrix coefficients            : BT.709

Audio #1
ID                             : 257 (0x101)
Menu ID                        : 1 (0x1)
Format                         : MPEG Audio
Format version                 : Version 1
Format profile                 : Layer 2
Codec ID                       : 3
Duration                       : 1h 33mn
Bit rate mode                  : Constant
Bit rate                       : 256 Kbps
Channel(s)                     : 2 channels
Sampling rate                  : 48.0 KHz
Compression mode               : Lossy
Delay relative to video        : -40ms
Stream size                    : 171 MiB (2%)
Language                       : ang

Audio #2
ID                             : 258 (0x102)
Menu ID                        : 1 (0x1)
Format                         : AC-3
Format/Info                    : Audio Coding 3
Mode extension                 : CM (complete main)
Format settings, Endianness    : Big
Codec ID                       : 129
Duration                       : 1h 33mn
Bit rate mode                  : Constant
Bit rate                       : 448 Kbps
Channel(s)                     : 6 channels
Channel positions              : Front: L C R, Side: L R, LFE
Sampling rate                  : 48.0 KHz
Compression mode               : Lossy
Delay relative to video        : -40ms
Stream size                    : 299 MiB (3%)
Language                       : Dutch

Audio #3
ID                             : 259 (0x103)
Menu ID                        : 1 (0x1)
Format                         : MPEG Audio
Format version                 : Version 1
Format profile                 : Layer 2
Codec ID                       : 3
Duration                       : 1h 33mn
Bit rate mode                  : Constant
Bit rate                       : 256 Kbps
Channel(s)                     : 2 channels
Sampling rate                  : 48.0 KHz
Compression mode               : Lossy
Delay relative to video        : -40ms
Stream size                    : 171 MiB (2%)
Language                       : gos

 

Part1:

https://subyshare.com/eyynrb8k3dpn/Pinkpop_Part_1.part1.rar.html
https://subyshare.com/25mznb2u1glm/Pinkpop_Part_1.part2.rar.html
https://subyshare.com/0ydh7i5liupz/Pinkpop_Part_1.part3.rar.html
https://subyshare.com/pszwflzpk1iv/Pinkpop_Part_1.part4.rar.html
https://subyshare.com/4spnz0ptcj4n/Pinkpop_Part_1.part5.rar.html
https://subyshare.com/cnt2774a8pn0/Pinkpop_Part_1.part6.rar.html
https://subyshare.com/a1z8f618rvdz/Pinkpop_Part_1.part7.rar.html

Part2 :

https://subyshare.com/ydja576wfo1s/Pinkpop_Part_2.part01.rar.html
https://subyshare.com/ax5jm7kzr6qy/Pinkpop_Part_2.part02.rar.html
https://subyshare.com/u4p7j159yxud/Pinkpop_Part_2.part03.rar.html
https://subyshare.com/ez6mmhx4g51v/Pinkpop_Part_2.part04.rar.html
https://subyshare.com/7p80snc4c0av/Pinkpop_Part_2.part05.rar.html
https://subyshare.com/4wl069lz7lqc/Pinkpop_Part_2.part06.rar.html
https://subyshare.com/cavset85lozg/Pinkpop_Part_2.part07.rar.html
https://subyshare.com/gxnryjhbjr47/Pinkpop_Part_2.part08.rar.html
https://subyshare.com/afp7eooeqi5l/Pinkpop_Part_2.part09.rar.html
https://subyshare.com/iay6hclmokkq/Pinkpop_Part_2.part10.rar.html
https://subyshare.com/nvjj6dhhq7da/Pinkpop_Part_2.part11.rar.html
https://subyshare.com/nt1uklp2lwuo/Pinkpop_Part_2.part12.rar.html
https://subyshare.com/vg3cu2waoynd/Pinkpop_Part_2.part13.rar.html
https://subyshare.com/f3iq5buiqaoa/Pinkpop_Part_2.part14.rar.html
https://subyshare.com/vznm2exxiymb/Pinkpop_Part_2.part15.rar.html
https://subyshare.com/4mnyhb2pnxif/Pinkpop_Part_2.part16.rar.html
https://subyshare.com/n0oinix23w1v/Pinkpop_Part_2.part17.rar.html