Antonin Dvorak – Requiem Op. 89 – Antwerp Symphony Orchestra, Collegium Vocale Gent, Philippe Herreweghe (2017) Blu-ray 1080i AVC DTS-HD MA 5.1

Сomposer: Antonín Dvořák (1841-1904)
Title: Requiem, Op. 89, B. 165
Release Date: 2017
Recording Date: April, 2014
Recording Location: deSingel, Antwerp
Genre: Classical, Choral
Director: Leonid Adamopoulos
Conductor: Philippe Herreweghe
Artist: Ilse Eerens soprano, Bernarda Fink alto, Maximilian Schmitt tenor, Nathan Berg bass, Antwerp Symphony Orchestra, Collegium Vocale Gent

Production/Label: EuroArts Music International GmbH
Duration: 01:38:04
Quality: Blu-ray
Container: BDMV
Video codec: AVC
Audio codec: DTS, PCM
Video: MPEG-4 AVC 19475 kbps / 1920*1080i / 29,970 fps / 16:9 / High Profile 4.1
Audio#1: DTS-HD MA 5.1 / 48 kHz / 4026 kbps / 24-bit (DTS Core: 5.1 / 48 kHz / 1509 kbps / 24-bit)
Audio#2: LPCM 2.0 / 48 kHz / 2304 kbps / 24-bit
Subtitles: English, German, French, Spanish, Latin
Size: 21,38 GB

Philippe Herreweghe, principal conductor of the Antwerp Symphony Orchestra, has devoted himself for over ten years to fresh and invigorating readings of the (pre-) Romantic repertoire. Together with the Collegium Vocale, founded in 1970 by Philippe Herreweghe himself, and superb soloists they perform Dvořák’s Requiem. A modern and stylistically flexible symphony orchestra, the Antwerp Symphony Orchestra demonstrates an artistic flair which allows for a variety of styles and occupies a unique position in Flanders. Collegium Vocale Gent were one of the first ensembles to use new ideas about baroque performance practice in vocal music. Their authentic, text-oriented and rhetorical approach gave the ensemble the transparent sound with which it would acquire world fame and perform at the major concert venues and music festivals all over the world.

Tracklist:
  Antonín Dvořák (1841-1904)
  Requiem, Op. 89, B. 165
1. Opening 00:50
2. Requiem aeternam (Vocal Quartet, Chorus) 01:14
3. Graduale (Soprano, Chorus) 04:59
4. Dies irae (Chorus) 02:27
5. Tuba mirum (Alto, Tenor, Bass, Chorus) 08:50
6. Quid sum miser (Vocal Quartet, Chorus) 06:24
7. Recordare, Jesu pie (Vocal Quartet) 07:06
8. Confutatis maledictis (Chorus) 04:55
9. Lacrimosa (Vocal Quartet, Chorus) 06:36
10. Offertorium (Vocal Quartet, Chorus) 11:08
11. Hostias (Vocal Quartet, Chorus) 09:53
12. Sanctus (Vocal Quartet, Chorus) 05:53
13. Pie Jesu (Soprano, Alto, Tenor, Chorus) 04:10
14. Agnus Dei (Vocal Quartet, Chorus) 11:10
15. Applause & Credits 00:50

http://thumbs.imagebam.com/88/3d/37/504ae6609187903.jpg http://thumbs.imagebam.com/b5/14/4f/21e281609188013.jpg http://thumbs.imagebam.com/1a/6e/f7/053282609188133.jpg http://thumbs.imagebam.com/62/72/d0/805b1d609188213.jpg

DISC INFO:

Disc Title:     Dvořák.Requiem Op. 89.Antwerp SO, Collegium Vocale Gent, Philippe Herreweghe.2017.BD1080i
Disc Size:      22 952 650 677 bytes
Protection:     AACS
BD-Java:        No
BDInfo:         0.5.8

PLAYLIST REPORT:

Name:                   00000.MPLS
Length:                 1:38:04.578 (h:m:s.ms)
Size:                   20 097 355 776 bytes
Total Bitrate:          27,32 Mbps

VIDEO:

Codec                   Bitrate             Description    
-----                   -------             -----------    
MPEG-4 AVC Video        19475 kbps          1080i / 29,970 fps / 16:9 / High Profile 4.1

AUDIO:

Codec                           Language        Bitrate         Description    
-----                           --------        -------         -----------    
LPCM Audio                      Undetermined    2304 kbps       2.0 / 48 kHz / 2304 kbps / 24-bit
DTS-HD Master Audio             Undetermined    4026 kbps       5.1 / 48 kHz / 4026 kbps / 24-bit (DTS Core: 5.1 / 48 kHz / 1509 kbps / 24-bit)

SUBTITLES:

Codec                           Language        Bitrate         Description    
-----                           --------        -------         -----------    
Presentation Graphics           English         5,335 kbps                      
Presentation Graphics           German          5,296 kbps                      
Presentation Graphics           French          5,160 kbps                      
Presentation Graphics           Spanish         5,091 kbps                      
Presentation Graphics           Latin           4,244 kbps                      

FILES:

Name            Time In         Length          Size            Total Bitrate  
----            -------         ------          ----            -------------  
00000.M2TS      0:00:00.000     1:37:56.203     20 095 248 384  27 358          
00008.M2TS      1:37:56.203     0:00:08.041     2 095 104       2 084          
00007.M2TS      1:38:04.245     0:00:00.333     12 288          295            

Blu-Ray Disc:

https://subyshare.com/yll5eqn8o958/Dv0k.Requiem0p.89.AntwerpS0C0llegiumV0caleGentPhilippeHerreweghe.2017.BD1080i.part01.rar.html
https://subyshare.com/74jbbv1gkmr0/Dv0k.Requiem0p.89.AntwerpS0C0llegiumV0caleGentPhilippeHerreweghe.2017.BD1080i.part02.rar.html
https://subyshare.com/3smlcx2k939f/Dv0k.Requiem0p.89.AntwerpS0C0llegiumV0caleGentPhilippeHerreweghe.2017.BD1080i.part03.rar.html
https://subyshare.com/x8hafuj9e29i/Dv0k.Requiem0p.89.AntwerpS0C0llegiumV0caleGentPhilippeHerreweghe.2017.BD1080i.part04.rar.html
https://subyshare.com/aahvw4rt2c3g/Dv0k.Requiem0p.89.AntwerpS0C0llegiumV0caleGentPhilippeHerreweghe.2017.BD1080i.part05.rar.html
https://subyshare.com/79nza8dgcc8b/Dv0k.Requiem0p.89.AntwerpS0C0llegiumV0caleGentPhilippeHerreweghe.2017.BD1080i.part06.rar.html
https://subyshare.com/vx7ciqq2ibn6/Dv0k.Requiem0p.89.AntwerpS0C0llegiumV0caleGentPhilippeHerreweghe.2017.BD1080i.part07.rar.html
https://subyshare.com/4csl4thedp6x/Dv0k.Requiem0p.89.AntwerpS0C0llegiumV0caleGentPhilippeHerreweghe.2017.BD1080i.part08.rar.html
https://subyshare.com/7qq4jp6ld3jq/Dv0k.Requiem0p.89.AntwerpS0C0llegiumV0caleGentPhilippeHerreweghe.2017.BD1080i.part09.rar.html
https://subyshare.com/1b7wrtrpmqsq/Dv0k.Requiem0p.89.AntwerpS0C0llegiumV0caleGentPhilippeHerreweghe.2017.BD1080i.part10.rar.html
https://subyshare.com/p8lwdbdl1gpz/Dv0k.Requiem0p.89.AntwerpS0C0llegiumV0caleGentPhilippeHerreweghe.2017.BD1080i.part11.rar.html
https://subyshare.com/3i8jyem58h17/Dv0k.Requiem0p.89.AntwerpS0C0llegiumV0caleGentPhilippeHerreweghe.2017.BD1080i.part12.rar.html
https://subyshare.com/l25k7o4jmnj2/Dv0k.Requiem0p.89.AntwerpS0C0llegiumV0caleGentPhilippeHerreweghe.2017.BD1080i.part13.rar.html
https://subyshare.com/ix5u7f1rgbxg/Dv0k.Requiem0p.89.AntwerpS0C0llegiumV0caleGentPhilippeHerreweghe.2017.BD1080i.part14.rar.html
https://subyshare.com/t2h6pbea1f41/Dv0k.Requiem0p.89.AntwerpS0C0llegiumV0caleGentPhilippeHerreweghe.2017.BD1080i.part15.rar.html

Winrar Recovery Volumes
https://subyshare.com/hhxwxrpu6ykz/Dv0k.Requiem0p.89.AntwerpS0C0llegiumV0caleGentPhilippeHerreweghe.2017.BD1080i.part01.rev.html
https://subyshare.com/xlxglfsru2nt/Dv0k.Requiem0p.89.AntwerpS0C0llegiumV0caleGentPhilippeHerreweghe.2017.BD1080i.part02.rev.html